PBS - American Experience: Command And Control (2016)

Posted By: Tutorial
PBS - American Experience: Command And Control (2016)

PBS - American Experience: Command And Control (2016)
HDTV | 1280 x 720 | .MKV/AVC @ 2641 Kbps | 1h 53mn | 2.44 GB
Audio: English AC-3 384 Kbps, 2 channels | Subs: English
Genre: Documentary, History

Command and Control presents the true story of what happens when weapons built to protect threaten to become the very source of our own destruction. Based on bestseller by Eric Schlosser, the film tells the story of a 1980 accident at a Titan II missile complex in Damascus, Arkansas, and explores the great dilemma or our time: How do you manage weapons of mass destruction without being destroyed by them?
More info: IMDB

General
Unique ID : 236218521941033749499960953853640821524 (0xB1B60850C6231AD282D1B00EAED9CB14)
Complete name : american.experience.command.and.control.mkv
Format : Matroska
Format version : Version 4 / Version 2
File size : 2.44 GiB
Duration : 1h 53mn
Overall bit rate : 3 086 Kbps
Encoded date : UTC 2017-01-11 08:25:41
Writing application : mkvmerge v9.7.1 ('Pandemonium') 64bit
Writing library : libebml v1.3.4 + libmatroska v1.4.5
DURATION : 01:52:50.195000000
NUMBER_OF_FRAMES : 1779
NUMBER_OF_BYTES : 87910
_STATISTICS_WRITING_APP : mkvmerge v9.7.1 ('Pandemonium') 64bit
_STATISTICS_WRITING_DATE_UTC : 2017-01-11 08:25:41
_STATISTICS_TAGS : BPS DURATION NUMBER_OF_FRAMES NUMBER_OF_BYTES

Video
ID : 1
Format : AVC
Format/Info : Advanced Video Codec
Format profile : [email protected]
Format settings, CABAC : Yes
Format settings, ReFrames : 5 frames
Codec ID : V_MPEG4/ISO/AVC
Duration : 1h 53mn
Bit rate : 2 641 Kbps
Width : 1 280 pixels
Height : 720 pixels
Display aspect ratio : 16:9
Frame rate : 23.976 fps
Color space : YUV
Chroma subsampling : 4:2:0
Bit depth : 8 bits
Scan type : Progressive
Bits/(Pixel*Frame) : 0.120
Stream size : 2.09 GiB (86%)
Writing library : x264 core 148 r2744 b97ae06
Encoding settings : cabac=1 / ref=5 / deblock=1:0:0 / analyse=0x3:0x113 / me=hex / subme=8 / psy=1 / psy_rd=1.00:0.00 / mixed_ref=1 / me_range=16 / chroma_me=1 / trellis=2 / 8x8dct=1 / cqm=0 / deadzone=21,11 / fast_pskip=1 / chroma_qp_offset=-2 / threads=12 / lookahead_threads=2 / sliced_threads=0 / nr=0 / decimate=1 / interlaced=0 / bluray_compat=0 / constrained_intra=0 / bframes=3 / b_pyramid=2 / b_adapt=1 / b_bias=0 / direct=3 / weightb=1 / open_gop=0 / weightp=2 / keyint=250 / keyint_min=23 / scenecut=40 / intra_refresh=0 / rc_lookahead=50 / rc=crf / mbtree=1 / crf=20.0 / qcomp=0.60 / qpmin=0 / qpmax=69 / qpstep=4 / ip_ratio=1.40 / aq=1:1.00
Default : Yes
Forced : No

Audio
ID : 2
Format : AC-3
Format/Info : Audio Coding 3
Mode extension : CM (complete main)
Codec ID : A_AC3
Duration : 1h 53mn
Bit rate mode : Constant
Bit rate : 384 Kbps
Channel(s) : 2 channels
Channel positions : Front: L R
Sampling rate : 48.0 KHz
Bit depth : 16 bits
Compression mode : Lossy
Stream size : 311 MiB (12%)
Language : English
Default : Yes
Forced : No

Text
ID : 3
Format : UTF-8
Codec ID : S_TEXT/UTF8
Codec ID/Info : UTF-8 Plain Text
Language : English
Default : No
Forced : No
Screenshots

PBS - American Experience: Command And Control (2016)

PBS - American Experience: Command And Control (2016)

PBS - American Experience: Command And Control (2016)

PBS - American Experience: Command And Control (2016)

Welcome to my blog - daily update!

PBS - American Experience: Command And Control (2016)